Ai đã đăng kí rồi thì hãy đăng nhập nhanh tay.
Ai chưa đăng kí hãy đi đăng kí.
Đăng kí nhanh kẻo hết -----------> ĐĂNG KÍ VÀO CHÉM GIÓ NÀO.


Các thành viên của XL group liên hệ Admin hoặc Cry để được set vào nhóm XL.
 
IndexIndex  CalendarCalendar  GalleryGallery  Trợ giúpTrợ giúp  Tìm kiếmTìm kiếm  Thành viênThành viên  NhómNhóm  Đăng kýĐăng ký  Đăng NhậpĐăng Nhập  

Share | 
 

 Alice in Wonderland (2010) 1080p.Blu-ray.DTS-ES.x264-ViSTA™

Xem chủ đề cũ hơn Xem chủ đề mới hơn Go down 
Tác giảThông điệp
kimerajamm
MEM
MEM


Tổng số bài gửi : 3
Danh vọng : 0
Ngày tham gia : 06/06/2010

Bài gửiTiêu đề: Alice in Wonderland (2010) 1080p.Blu-ray.DTS-ES.x264-ViSTA™   Sun Jun 06, 2010 1:47 pm


IMDb Link: http://www.imdb.com/title/tt1014759/
IMDb Rating: 6.8/10 45,104 votes »
Photos: See All
Director: Tim Burton
Writers (WGA): Linda Woolverton (screenplay), Lewis Carroll (books)
Release Date: 5 March 2010 (USA)
Genre: Adventure | Family | Fantasy
Country: USA
Filming Locations: Antony House, Torpoint, Cornwall, England, UK
Company: Walt Disney Pictures
Main Cast:
Mia Wasikowska ... Alice
Johnny Depp ... Mad Hatter
Helena Bonham Carter ... Red Queen
Anne Hathaway ... White Queen
Crispin Glover ... Stayne
See more »
__________________________
General
Format : Matroska
File size : 11.4 GiB
Duration : 1h 48mn
Overall bit rate : 15.0 Mbps
Movie name : Alice in Wonderland (2010) 1080p.Blu-ray.DTS-ES.x264-ViSTA™
Encoded date : UTC 2010-05-20 09:01:53
Writing application : mkvmerge v3.4.0
Writing library : libebml v0.8.0 + libmatroska v0.9.0

Video
ID : 1
Format : AVC
Format/Info : Advanced Video Codec
Format profile : High@L4.1
Format settings, CABAC : Yes
Format settings, ReFrames : 4 frames
Muxing mode : Container profile=Unknown@4.1
Codec ID : V_MPEG4/ISO/AVC
Duration : 1h 48mn
Bit rate : 12.9 Mbps
Width : 1 920 pixels
Height : 1 080 pixels
Display aspect ratio : 16:9
Frame rate : 23.976 fps
Resolution : 8 bits
Colorimetry : 4:2:0
Scan type : Progressive
Bits/(Pixel*Frame) : 0.259
Stream size : 9.76 GiB (86%)
Writing library : x264 core 95 r1592 95aacc4
Language : English

Audio #1
ID : 2
Format : DTS
Format/Info : Digital Theater Systems
Format profile : ES
Codec ID : A_DTS
Duration : 1h 48mn
Bit rate mode : Constant
Bit rate : 1 510 Kbps
Channel(s) : 6 channels
Channel positions : Front: L C R, Side: L R, LFE
Sampling rate : 48.0 KHz
Resolution : 24 bits
Stream size : 1.15 GiB (10%)
Language : English

Audio #2
ID : 3
Format : AC-3
Format/Info : Audio Coding 3
Format profile : Dolby Digital
Format_Settings_ModeExtension : CM (complete main)


Trích dẫn :
http://www.megaupload.com/?d=PBEU44R9
http://www.megaupload.com/?d=K4ZBYH9J
http://www.megaupload.com/?d=OYAZ9ILR
http://www.megaupload.com/?d=CEY9AY78
http://www.megaupload.com/?d=YA68BF6L
http://www.megaupload.com/?d=X3CBO45M
http://www.megaupload.com/?d=WG77BK3A
http://www.megaupload.com/?d=NKGOD6H4
http://www.megaupload.com/?d=Y3D0SWB4
http://www.megaupload.com/?d=FO8B3IXZ
http://www.megaupload.com/?d=F48NVXJU
http://www.megaupload.com/?d=Z4YFMFZL
http://www.megaupload.com/?d=MA25YJAJ
http://www.megaupload.com/?d=E7HOSJ93
http://www.megaupload.com/?d=7ABDH2EH
http://www.megaupload.com/?d=KQPO4SYO
http://www.megaupload.com/?d=452H5SBP
http://www.megaupload.com/?d=C7YFT1ZE
http://www.megaupload.com/?d=KRLZ2YVU
http://www.megaupload.com/?d=N2KIQX9G
http://www.megaupload.com/?d=SIDHXIBA
http://www.megaupload.com/?d=01ZV6QA5
http://www.megaupload.com/?d=ME08FID1
http://www.megaupload.com/?d=ABRKSZFY
http://www.megaupload.com/?d=GXSZCFN4
http://www.megaupload.com/?d=E514J9FM
http://www.megaupload.com/?d=ZVEENEHM
http://www.megaupload.com/?d=8VNM3A2P
http://www.megaupload.com/?d=YPQ58EV8
http://www.megaupload.com/?d=WYV6OSES
http://www.megaupload.com/?d=NXR5BSEG
http://www.megaupload.com/?d=D799J960
http://www.megaupload.com/?d=1XR6UA5E
http://www.megaupload.com/?d=KJC7SIXQ
http://www.megaupload.com/?d=95ZKJZZA
http://www.megaupload.com/?d=TSTPD511
http://www.megaupload.com/?d=M8LTZ9HF
http://www.megaupload.com/?d=CD0CVW1D
http://www.megaupload.com/?d=0ZSLKHMM
http://www.megaupload.com/?d=GPAU3JFV
http://www.megaupload.com/?d=JC41NVD8
http://www.megaupload.com/?d=0KDOOX13
http://www.megaupload.com/?d=HCJY9DAJ
http://www.megaupload.com/?d=9Y1FF3FX
http://www.megaupload.com/?d=GA5GM124
http://www.megaupload.com/?d=ZVKXY81P
http://www.megaupload.com/?d=OP44RTK5
http://www.megaupload.com/?d=LT2R5KVD
http://www.megaupload.com/?d=BKAWTYHA
http://www.megaupload.com/?d=OW380FD5
http://www.megaupload.com/?d=YYVDDIC4
http://www.megaupload.com/?d=HIA4IMEP
http://www.megaupload.com/?d=AD6AXUZR
http://www.megaupload.com/?d=SS5A275X
http://www.megaupload.com/?d=J28JT23W
http://www.megaupload.com/?d=25438XDO
http://www.megaupload.com/?d=IFEXMO9M
http://www.megaupload.com/?d=SN8F5GKZ
http://www.megaupload.com/?d=HEH3SXGX
http://www.megaupload.com/?d=TT2CVEHM
http://www.megaupload.com/?d=7KM0Z6O0
http://www.megaupload.com/?d=SVZG8GSC




Trích dẫn :
http://rapidshare.com/files/389994927/ViSTA-aiw1080.part01.rar
http://rapidshare.com/files/389878223/ViSTA-aiw1080.part02.rar
http://rapidshare.com/files/389768754/ViSTA-aiw1080.part03.rar
http://rapidshare.com/files/389728176/ViSTA-aiw1080.part04.rar
http://rapidshare.com/files/389880495/ViSTA-aiw1080.part05.rar
http://rapidshare.com/files/389960029/ViSTA-aiw1080.part06.rar
http://rapidshare.com/files/389833759/ViSTA-aiw1080.part07.rar
http://rapidshare.com/files/389832875/ViSTA-aiw1080.part08.rar
http://rapidshare.com/files/389740692/ViSTA-aiw1080.part09.rar
http://rapidshare.com/files/389901219/ViSTA-aiw1080.part10.rar
http://rapidshare.com/files/389754022/ViSTA-aiw1080.part11.rar
http://rapidshare.com/files/389730965/ViSTA-aiw1080.part12.rar
http://rapidshare.com/files/389833542/ViSTA-aiw1080.part13.rar
http://rapidshare.com/files/389728690/ViSTA-aiw1080.part14.rar
http://rapidshare.com/files/389897431/ViSTA-aiw1080.part15.rar
http://rapidshare.com/files/389853970/ViSTA-aiw1080.part16.rar
http://rapidshare.com/files/389992940/ViSTA-aiw1080.part17.rar
http://rapidshare.com/files/389724089/ViSTA-aiw1080.part18.rar
http://rapidshare.com/files/389811013/ViSTA-aiw1080.part19.rar
http://rapidshare.com/files/389958108/ViSTA-aiw1080.part20.rar
http://rapidshare.com/files/389769835/ViSTA-aiw1080.part21.rar
http://rapidshare.com/files/389917287/ViSTA-aiw1080.part22.rar
http://rapidshare.com/files/389854831/ViSTA-aiw1080.part23.rar
http://rapidshare.com/files/389834080/ViSTA-aiw1080.part24.rar
http://rapidshare.com/files/389753086/ViSTA-aiw1080.part25.rar
http://rapidshare.com/files/389767151/ViSTA-aiw1080.part26.rar
http://rapidshare.com/files/389957874/ViSTA-aiw1080.part27.rar
http://rapidshare.com/files/389710760/ViSTA-aiw1080.part28.rar
http://rapidshare.com/files/389763510/ViSTA-aiw1080.part29.rar
http://rapidshare.com/files/389761541/ViSTA-aiw1080.part30.rar
http://rapidshare.com/files/389757455/ViSTA-aiw1080.part31.rar
http://rapidshare.com/files/389896415/ViSTA-aiw1080.part32.rar
http://rapidshare.com/files/389923436/ViSTA-aiw1080.part33.rar
http://rapidshare.com/files/389855558/ViSTA-aiw1080.part34.rar
http://rapidshare.com/files/390003135/ViSTA-aiw1080.part35.rar
http://rapidshare.com/files/389881404/ViSTA-aiw1080.part36.rar
http://rapidshare.com/files/389747121/ViSTA-aiw1080.part37.rar
http://rapidshare.com/files/389857509/ViSTA-aiw1080.part38.rar
http://rapidshare.com/files/389836679/ViSTA-aiw1080.part39.rar
http://rapidshare.com/files/389713791/ViSTA-aiw1080.part40.rar
http://rapidshare.com/files/389755363/ViSTA-aiw1080.part41.rar
http://rapidshare.com/files/389925294/ViSTA-aiw1080.part42.rar
http://rapidshare.com/files/389808944/ViSTA-aiw1080.part43.rar
http://rapidshare.com/files/389765727/ViSTA-aiw1080.part44.rar
http://rapidshare.com/files/389899018/ViSTA-aiw1080.part45.rar
http://rapidshare.com/files/389858796/ViSTA-aiw1080.part46.rar
http://rapidshare.com/files/389765113/ViSTA-aiw1080.part47.rar
http://rapidshare.com/files/389878078/ViSTA-aiw1080.part48.rar
http://rapidshare.com/files/389809183/ViSTA-aiw1080.part49.rar
http://rapidshare.com/files/389765304/ViSTA-aiw1080.part50.rar
http://rapidshare.com/files/389711348/ViSTA-aiw1080.part51.rar
http://rapidshare.com/files/389959845/ViSTA-aiw1080.part52.rar
http://rapidshare.com/files/389955929/ViSTA-aiw1080.part53.rar
http://rapidshare.com/files/389806992/ViSTA-aiw1080.part54.rar
http://rapidshare.com/files/389768133/ViSTA-aiw1080.part55.rar
http://rapidshare.com/files/389920457/ViSTA-aiw1080.part56.rar
http://rapidshare.com/files/389718341/ViSTA-aiw1080.part57.rar
http://rapidshare.com/files/389757697/ViSTA-aiw1080.part58.rar
http://rapidshare.com/files/389922579/ViSTA-aiw1080.part59.rar
http://rapidshare.com/files/389752685/ViSTA-aiw1080.part60.rar
http://rapidshare.com/files/389812832/ViSTA-aiw1080.part61.rar
http://rapidshare.com/files/389905111/ViSTA-aiw1080.part62.rar
Codec ID : A_AC3
Duration : 1h 48mn
Bit rate mode : Constant
Bit rate : 320 Kbps
Channel(s) : 2 channels
Channel positions : Front: L R
Sampling rate : 48.0 KHz
Stream size : 249 MiB (2%)
Title : Commentary
Language : English

Text
ID : 4
Format : ASS
Codec ID : S_TEXT/ASS
Codec ID/Info : Advanced Sub Station Alpha
Language : English





Text Link Ads
Organic Seo
________________
Text Link Ads
Organic Seo
Về Đầu Trang Go down
 
Alice in Wonderland (2010) 1080p.Blu-ray.DTS-ES.x264-ViSTA™
Xem chủ đề cũ hơn Xem chủ đề mới hơn Về Đầu Trang 
Trang 1 trong tổng số 1 trang

Permissions in this forum:Bạn không có quyền trả lời bài viết
 :: Phim ảnh :: Phim ảnh-
Chuyển đến 
Free forum | © phpBB | Free forum support | Liên hệ | Report an abuse | Create a free blog